Parallel Man: Infinite Pursuit
GET IT NOWRillington Place
Episode 277
cvprmxdllyyid.com - The Largest Bittorent System Login   |    Register
Latest Articles
Most searched
Hot torrents
Movie Torrents
Hot torrents
TV Torrents
View Torrent Info: Arrow.S06E18.HDTV.x264-SVA[eztv]
View Torrent Info: Lucifer.S03E20.HDTV.x264-KILLERS[eztv]
View Torrent Info: Fear.the.Walking.Dead.S04E01.HDTV.x264-SVA[eztv]
View Torrent Info: Lethal.Weapon.S02E18.WEB.x264-TBS[eztv]
View Torrent Info: Supernatural.S13E18.HDTV.x264-SVA[eztv]
View Torrent Info: Supergirl.S03E14.HDTV.x264-SVA[eztv]
View Torrent Info: Young.Sheldon.S01E18.HDTV.x264-SVA[eztv]
View Torrent Info: Billions.S03E04.WEBRip.x264-PBS[eztv]
View Torrent Info: Black.Lightning.S01E12.HDTV.x264-SVA[eztv]
View Torrent Info: Brooklyn.Nine-Nine.S05E16.WEB.x264-TBS[eztv]
cvprmxdllyyid.com > Categories > Movies torrents > Bollywood/Desi torrents


Browse Movies torrents

Baaghi 2 2018 Hindi 720p HDRip AAC 2.0 x264 [MW] torrent



Download torrent: Download Baaghi 2 2018 Hindi 720p HDRip AAC 2.0 x264 [MW] torrent Magnet link Bookmark Torrent: Baaghi 2 2018 Hindi 720p HDRip AAC 2.0 x264 [MW] Baaghi 2 2018 Hindi 720p HDRip AAC 2.0 x264 [MW] torrent | if not working, try instead: Magnet Link
Info hash: EF4EE93D4BABBC4C478E64091EF0115A379DE19A
Category: Categories > Movies torrents > Bollywood/Desi torrents
Trackers:
17    View all torrent trackers >
Health:
 seeds: 2 ,  leechers: 0 |  Update >
Total Size: 1.20 GB
Torrent status: Added by trusted uploader Added by trusted uploader Trusted Uploader Site Friend Superman Sun
Uploader: Trusted Uploader Site Friend Superman Sun
Torrent added: 2018-04-17 09:36:55
 

Download Baaghi 2 2018 Hindi 720p HDRip AAC 2.0 x264 [MW] torrent if not working, try downloading torrent using Download Baaghi 2 2018 Hindi 720p HDRip AAC 2.0 x264 [MW] via Magnet Link




Torrent Description





General
Format : Matroska
Format version : Version 4 / Version 2
File size : 1.22 GiB
Duration : 2 h 23 min
Overall bit rate : 1 221 kb/s

Video
ID : 1
Format : AVC
Format/Info : Advanced Video Codec
Format profile : [email protected]
Format settings : CABAC / 4 Ref Frames
Format settings, CABAC : Yes
Format settings, RefFrames : 4 frames
Codec ID : V_MPEG4/ISO/AVC
Duration : 2 h 23 min
Bit rate : 1 100 kb/s
Width : 1 280 pixels
Height : 540 pixels
Display aspect ratio : 2.40:1
Frame rate mode : Constant
Frame rate : 15.000 FPS
Color space : YUV
Chroma subsampling : 4:2:0
Bit depth : 8 bits
Scan type : Progressive
Bits/(Pixel*Frame) : 0.106
Stream size : 1.09 GiB (89%)
Writing library : x264 core 155 r2893 b00bcaf
Default : Yes
Forced : No

Audio
ID : 2
Format : AAC
Format/Info : Advanced Audio Codec
Format profile : LC
Codec ID : A_AAC-2
Duration : 2 h 23 min
Bit rate : 128 kb/s
Channel(s) : 2 channels
Channel positions : Front: L R
Sampling rate : 48.0 kHz
Frame rate : 46.875 FPS (1024 SPF)
Compression mode : Lossy
Stream size : 131 MiB (10%)
Language : Hindi
Default : Yes
Forced : No
















#moviezworldz -> To avoid fakes, ALWAYS check that the torrent was added on cvprmxdllyyid.com by moviezworldz

http://cvprmxdllyyid.com/



Download Baaghi 2 2018 Hindi 720p HDRip AAC 2.0 x264 [MW] torrent


Comments (please add your comment)
No comments



Home - Browse Torrents - Upload Torrent - Stat - Forum - FAQ - Login
cvprmxdllyyid.com is in compliance with copyrights
2006-2018 cvprmxdllyyid.com